Subcategories

The Billy Harper Quintet - Trying To Make Heaven My Home (1979/2016) [Official Digital Download 24/88]

Posted By: HDV
The Billy Harper Quintet - Trying To Make Heaven My Home (1979/2016) [Official Digital Download 24/88]

Billy Harper - Trying To Make Heaven My Home (1979/2016)
FLAC (tracks) 24-bit/88,2 kHz | Time - 38:24 minutes | 813 MB
Studio Master, Official Digital Download | Artwork: Front cover

One of the best-known players of the post-Coltrane generation, Texas tenor saxophonist Billy Harper earned his spurs with Art Blakey, Randy Weston, Gil Evans, and Max Roach. This 1979 album features Harper’s then-current working group. Fellow Texan Malcolm Pinson and Harper have been playing partners since high school. Bassist Wayne Dockery gained recognition through his work with Art Blakey; trumpeter Everett Hollins’ roots are grounded in rhythm and blues including work with the legendary Otis Redding, and pianist Armen Donelian worked with jazz giants Lionel Hampton and Sonny Rollins.

Harper grew up in the Church and credits that black spiritual heritage as a major influence on his music and world view, one similar to Coltrane’s. For Harper, spirituality is non-denominational: it’s about a universal truth. On the album, Harper’s compositions reflect on the spiritual a City Called Heaven and other gospel songs of his youth. The 18 minute Trying To Make Heaven My Home is infused with gospel, blues, and the incandescent spiritual striving that so impregnated Coltrane’s later works. Pinson’s fiery drum intro ignites Inside as the quintet races through the changes at breakneck speed. An incendiary sax and drum duet catapults the band back into the theme. Love On The Sudan is a recognition of Africa’s rhythmic and spiritual impact on Harper’s music as well as Western civilization. German jazz guru Joachim-Ernst Berendt called the album “a major piece of Black American Classical Music.” Deserved praise for a sublime recording.

Tracklist:

01 - Trying to Make Heaven My Home
02 - Inside
03 - Love On the Sudan

Produced by Joachim-Ernst Berendt. Engineered by Gibbs Platen.
Recorded on March 3-4, 1979 at Tonstudio Zuckerfabrik, Stuttgart, Germany.
Digitally Remastered in 2014.

Musicians:
Billy Harper - tenor saxophone
Everett Hollins - trumpet
Armen Donelian - piano
Wayne Dockery - bass
Malcolm Pinson - drums


Analyzed: The Billy Harper Quintet / Trying To Make Heaven My Home
––––––––––––––––––––––––––––––––––––––––

DR Peak RMS Duration Track
––––––––––––––––––––––––––––––––––––––––
DR12 -2.09 dB -16.53 dB 18:00 01-Trying to Make Heaven My Home
DR12 -2.05 dB -15.76 dB 8:30 02-Inside
DR12 -1.19 dB -15.51 dB 11:55 03-Love On the Sudan
––––––––––––––––––––––––––––––––––––––––

Number of tracks: 3
Official DR value: DR12

Samplerate: 88200 Hz
Channels: 2
Bits per sample: 24
Bitrate: 2829 kbps
Codec: FLAC
================================================================================


Thanks to the Original customer!