Subcategories

Bob Malach - Some People (1980/2016) [Official Digital Download 24/88]

Posted By: HDV
Bob Malach - Some People (1980/2016) [Official Digital Download 24/88]

Bob Malach - Some People (1980/2016)
FLAC (tracks) 24-bit/88,2 kHz | Time - 37:44 minutes | 757 MB
Studio Master, Official Digital Download | Artwork: Front cover

One of the great fusion saxophonists, Bob Malach made the move from his hometown of Philadelphia to NYC in 1976. He soon found work with the likes of Stanley Clarke and Alphonse Mouzon (he’s featured on Mouzon’s MPS release Baby Come Back), and was in the studio with Stevie Wonder, Spyro Gyra and the Brecker Brothers. For the first album under his own name, Malach assembled a group of well-known playmates: John Lee and drummer Gerry Brown were high school buddies, and he and keyboardist Jasper van’t Hof had worked together in Mouzon’s group.

Malach and French violin star Didier Lockwood were also well-acquainted – Malach would appear on Lockwood’s MPS album “Live in Montreux” later that year. Dutch guitarist Eef Albers had already toured the states with Lee and Brown. The title piece shows that Some People are romantic, some are more on the funky side, as the band slides back and forth between the two. Guitar great John Scofield’s Who’s Who is a funky fusion fest with van’t Hof and Malach showing why they’re at the top of the list. The alluring ballad Three on a Cloud features atmospheric solos by violinist Lockwood and Malach in trio with guitarist Albers. The rock-march feel of Night Walk works as the perfect vehicle for Albers’ strolling guitar solo. Zbiggytism was written in honor of violin great Zbigniew Siefert, and both Malach and Lockwood catch the spirit of the Polish maestro. Van’t Hof’s lyrical Pineu has a nostalgic air to it, as well as Malach’s appropriately poignant solo. By the Way rocks the album out with a Shaft-like rhythm line and a smoking-hot tenor. Nothing ‘out’ or experimental here – just straight-ahead jazz fusion at its best.

Tracklist:

01 - Some People
02 - Who's Who
03 - Three On a Cloud
04 - Night Walk
05 - Zbiggytism
06 - Pineau
07 - By the Way

Produced by Joachim Ernst Berendt.
Recorded at Tonstudio Zuckerfabrik.
Digitally Remastered in 2014.

Musicians:
Bob Malach - tenor saxophone
Didier Lockwood - violin on "1,3,4,6"
Jasper Van't Hof - keyboards, piano, Fender Rhodes, organ (Yamaha)
Eef Albers - guitar
John Lee - bass
Gerry Brown - drums


Analyzed: Bob Malach / Some People
––––––––––––––––––––––––––––––––––––––––

DR Peak RMS Duration Track
––––––––––––––––––––––––––––––––––––––––
DR12 -1.84 dB -15.28 dB 5:25 01-Some People
DR13 -1.44 dB -15.97 dB 4:12 02-Who's Who
DR11 -4.82 dB -18.77 dB 5:16 03-Three On a Cloud
DR11 -3.02 dB -15.93 dB 4:04 04-Night Walk
DR12 -2.77 dB -15.76 dB 4:46 05-Zbiggytism
DR12 -2.76 dB -17.62 dB 8:08 06-Pineau
DR12 -2.04 dB -15.71 dB 5:53 07-By the Way
––––––––––––––––––––––––––––––––––––––––

Number of tracks: 7
Official DR value: DR12

Samplerate: 88200 Hz
Channels: 2
Bits per sample: 24
Bitrate: 2675 kbps
Codec: FLAC
================================================================================


Thanks to the Original customer!